#TITLE:13 Daybreak;
#SUBTITLE:(Non-Stop Mega Mix Version);
#ARTIST:浜崎あゆみ;
#TITLETRANSLIT:;
#SUBTITLETRANSLIT:;
#ARTISTTRANSLIT:ayumi hamasaki;
#CREDIT:;
#BANNER:Daybreak.png;
#BACKGROUND:Daybreak-bg.png;
#LYRICSPATH:Daybreak (Non-Stop Mega Mix Version).lrc;
#CDTITLE:to.png;
#MUSIC:Daybreak (Non-Stop Mega Mix Version).MP3;
#OFFSET:0.540;
#SAMPLESTART:0.240;
#SAMPLELENGTH:11.980;
#SELECTABLE:YES;
#BPMS:0.000=140.000,100.000=70.000,168.000=140.000,500.000=100.000;
#STOPS:;
#BGCHANGES:;
// cache tags:
#FIRSTBEAT:2.000;
#LASTBEAT:531.000;
#SONGFILENAME:Songs/SS Ayu Style -Mini Pack-/Daybreak (Non-Stop Mega Mix Version)/Daybreak (Non-Stop Mega Mix Version).sm;
#HASMUSIC:1;
#HASBANNER:1;
#MUSICLENGTH:261.911;
// end cache tags

//---------------dance-single - ----------------
#NOTES:
     dance-single:
     :
     Hard:
     10:
     0.692,1.000,0.317,0.111,0.725,1157.000,83.000,29.000,0.000,0.000:
0000
0000
0000
0000
0000
0000
0000
0000
1000
0000
0000
0001
1000
0000
0010
0000
,
0100
0000
0000
0010
0001
0000
1000
0000
0010
0000
0000
1000
0100
0000
0010
0000
,
0001
0000
0000
0010
0001
0000
0010
0000
1000
0000
0000
0100
0001
0000
0100
0000
,
0010
0000
0000
0010
1000
0000
0001
0000
0100
0000
0000
0100
0010
0000
1000
0000
,
0010
0000
0000
1000
0001
0000
0100
0000
0010
0000
0000
0001
1000
0000
0001
0000
,
0100
0000
0000
0010
0100
0000
0001
0000
1000
0000
0000
1000
0010
0000
1000
0000
,
0001
0000
0000
0100
0010
0000
0100
0000
1001
0000
0000
1000
0100
0000
0010
0000
,
0001
0000
0000
0001
1000
0000
0100
0000
0010
0000
0000
1000
0001
0000
0100
0000
,
0010
0000
0000
0001
1000
0000
0100
0000
1000
0000
0001
0100
0001
0000
0010
0000
,
0110
0000
0000
1000
0010
0000
0001
0000
0100
0000
0000
0010
1000
0000
0001
0000
,
1000
0000
0000
0100
0010
0000
0001
0000
1000
0000
0000
0001
0100
0000
0001
0000
,
0010
0000
0000
1000
0001
0000
0100
0000
0100
0000
0000
0001
1000
0000
0010
0000
,
1000
0000
0000
0000
0100
0000
0100
0000
0010
0000
0000
0100
0010
0000
1000
0000
,
0001
0000
0000
0000
1000
0000
0100
0000
0010
0000
0000
0001
1000
0000
0100
0000
,
1000
0000
0000
1000
0010
0000
0100
0000
0010
0000
0000
0001
0001
0000
1000
0000
,
1000
0000
0000
0100
0010
0000
1000
0000
0001
0000
0000
1000
0010
0000
1000
0000
,
0100
0000
0000
0001
0010
0000
0100
0000
1000
0000
0000
0001
1000
0000
0100
0000
,
1001
0000
0000
0010
0100
0000
0001
0000
0001
0000
0000
1000
0010
0000
1000
0000
,
0100
0000
0000
0100
0010
0000
1001
0000
0100
0000
0000
1000
0001
0000
1000
0000
,
0010
0000
0000
0100
0010
0000
1001
0000
0100
0000
0000
0001
1000
0000
0010
0000
,
0100
0000
0000
0100
0010
0000
1000
0000
0001
0000
0010
0000
0100
0000
1000
0000
,
1001
0000
0000
1000
0010
0000
1000
0000
0100
0000
0000
0100
0010
0000
1000
0000
,
0001
0000
0000
0001
0100
0000
0010
0000
0100
0000
0000
0100
0001
0000
1000
0000
,
0001
0000
0000
0001
0100
0000
0010
0000
1000
0000
0000
1000
0010
0000
0100
0000
,
0010
0000
0010
0001
0010
0000
0010
0100
,
2002
0000
0000
0000
0000
0000
0000
0000
0000
0003
3010
0100
,
0002
0000
0000
0010
0000
0000
1000
0000
0000
1000
0100
1000
,
0023
0000
0000
0000
0000
0000
0000
0000
0000
0000
0000
0000
0000
0000
0100
0000
0000
0000
0001
0000
0000
0000
2000
0000
0030
0000
0000
0000
0000
0000
0000
0000
0000
0200
0000
0000
3000
0000
0000
0000
0000
0000
0010
0000
0000
0000
0001
0000
,
0000
0000
0010
0300
0000
0000
2000
0000
0000
0000
0000
0000
0000
0000
0000
0000
0100
0000
0000
0000
0000
0000
0010
0000
0000
0000
0001
0000
3000
0000
0020
0000
0000
0000
0000
0000
0000
0000
0000
0000
0000
0000
0000
0000
0000
0000
0000
0000
,
0000
0000
0000
0230
0000
0000
0000
0000
0000
0000
0000
0000
0000
0000
0000
0000
0000
0000
0000
0000
0010
0000
0010
0000
,
0320
0000
0000
1000
0000
0000
0001
0000
0000
0100
1000
0100
,
2030
0000
0000
0000
0000
0000
0000
0000
0000
0000
0000
0000
0000
0000
0000
0010
0000
0000
0001
0000
0000
0000
0020
0000
3000
0000
0000
0000
0000
0000
0000
0000
0000
0000
0100
0000
0000
0000
0000
0000
0000
0000
0100
0000
0000
0000
1000
0000
,
0000
0100
0000
0001
0000
0000
0000
0000
0000
0100
0000
1000
0000
0100
0000
2030
0000
0000
0000
0000
0000
0000
0000
0000
,
0000
3002
0000
0000
0000
0000
0000
0000
,
1003
0100
0000
1000
0010
0000
1000
0100
0000
1000
0010
0000
0010
0000
0000
0001
0100
0000
0001
0010
0000
0001
0100
0000
0001
1000
0000
0010
1000
0000
0100
0010
,
0000
0001
1000
0000
0010
1000
0000
0001
0100
0000
1000
0100
0000
0010
0100
0000
0001
1000
0000
0100
0010
0000
1000
0001
0000
0010
0100
0000
0001
0010
0000
0100
,
1000
0100
0000
0001
0100
0000
0010
0100
0000
0001
0010
0000
1000
0100
0000
0001
1000
0000
1000
0010
0000
0010
0100
0000
0100
0001
0000
0001
1000
0000
1000
0100
,
0000
0100
0010
0000
0010
0001
0000
0001
1000
0000
1000
0001
0000
0001
0100
0000
0100
0010
0000
0010
1000
0000
1000
0001
0000
0001
0010
0000
0010
1000
0000
1000
,
0100
1000
0000
0001
0001
0000
1000
1000
0000
0010
0010
0000
0100
0100
0000
0001
0001
0000
0010
0010
0000
0100
0100
0000
1000
1000
0000
0001
0001
0000
0100
0100
,
0000
1000
1000
0000
0010
0010
0000
0100
0100
0000
0001
0001
0000
1000
1000
0000
0010
0010
0000
0100
0100
0000
0001
0001
0000
1000
1000
0000
0010
0010
0000
0100
,
0001
1000
0000
1000
0100
0000
0010
0001
0000
0001
0100
0000
0100
0010
0000
0001
1000
0000
0100
0010
0000
1000
0001
0000
0010
0100
0000
0100
0010
0000
0001
1000
,
0000
1000
0010
0000
0010
0100
0000
0100
0001
0000
0001
1000
0000
1000
0010
0000
1001
0000
0000
0000
1001
0000
0000
0000
0110
0000
0000
0000
0110
0000
0000
0000
,
0001
0000
0100
1000
0010
0000
0100
0000
1000
0000
0010
0100
0001
0000
1000
0000
,
0010
0000
0001
1000
0010
0000
1000
0000
0100
0000
1000
0001
0010
0000
0001
0000
,
1000
0000
0010
1000
0100
0000
0010
0000
0001
0000
0100
0001
0010
0000
1000
0000
,
0100
0000
1000
0100
0010
0000
0001
0000
1000
0000
0100
0010
0001
0000
1000
0000
,
0010
0000
0100
1000
0001
0000
0010
0000
0100
0000
1000
0100
0001
0000
1000
0000
,
0010
0000
0100
0001
1000
0000
0001
0000
0110
0000
1000
0100
0010
0000
0100
0000
,
0001
0000
1000
0010
0100
0000
0001
0000
1000
0000
0010
0100
0010
0000
0001
0000
,
1000
0000
0100
0010
0100
0000
0001
0000
1000
0000
0010
0001
0010
0000
1000
0000
,
1001
0000
0010
0100
1000
0000
0010
0000
0001
0000
0100
1000
0100
0000
0010
0000
,
0100
0000
0010
0001
1000
0000
0010
0000
0100
0000
0001
0010
0001
0000
0100
0000
,
1000
0000
0010
0100
0010
0000
0001
0000
1000
0000
0001
0010
0001
0000
0100
0000
,
1000
0000
0000
1000
0001
0000
0100
0000
0010
0000
0001
1000
0001
0000
0100
0000
,
0010
0000
0000
0010
0100
0000
0001
0000
1000
0000
0100
0010
0100
0000
1000
0000
,
0001
0000
1000
0100
1000
0000
0100
0000
0010
0000
0001
1000
0001
0000
0010
0000
,
0100
0000
1000
0001
1000
0000
0100
0000
0110
0000
0000
0001
1000
0000
0100
0000
,
0010
0000
1000
0100
1000
0000
0001
0000
0100
0000
1000
0010
0001
0000
0110
0000
,
0110
0000
0000
1000
0001
0000
1000
0000
0010
0000
0001
0100
0001
0000
1000
0000
,
0010
0000
0100
0001
1000
0000
0110
0000
0011
0000
0100
1000
0100
0000
1000
0000
,
0010
0000
0100
0001
1000
0000
0110
0000
0001
0000
0100
0010
0001
0000
1000
0000
,
0001
0000
0010
0001
1000
0000
0100
0000
0010
0000
0001
1000
0001
0000
0100
0000
,
0110
0000
0001
1000
0000
0001
1000
0000
0100
1000
0000
0100
1000
0000
0100
0000
,
0010
0000
1000
0001
0000
1000
0001
0000
0100
0001
0000
0100
0001
0000
1000
0010
,
1000
0001
1000
0000
1000
0010
0000
0010
1000
0000
1000
0001
0000
1000
0010
1000
,
0200
0000
0010
0310
0002
0100
0100
1003
,
1001
0000
0000
0100
0010
0000
0110
0000
0001
1000
0001
0100
0000
0000
0100
0000
,
0010
0000
0000
0001
1000
0000
1001
0000
0100
0010
0100
0001
0000
0000
0001
0000
,
1100
0000
0000
0010
0001
0000
0011
0000
1000
0001
0010
0100
0000
0000
0100
0000
,
0011
0000
0000
1000
0001
0000
1001
0000
1000
0010
1000
0200
0000
0000
0310
0000
,
1001
0000
0000
0100
0010
0000
0100
0000
0001
1000
0000
1000
0010
0000
0100
0000
,
0101
0000
0000
0001
0100
0000
0010
0000
1000
0100
0000
0100
0001
0000
0010
0000
,
1100
0000
0000
0001
0010
0000
0100
0000
0001
0010
0000
0010
0001
0000
1000
0000
,
1010
0000
0000
0001
1000
0000
0001
0000
1000
0100
1000
0100
0000
1000
0010
0000
,
1010
0000
0000
2000
0001
0000
0000
0000
3001
0000
0000
0001
1000
0000
1000
0000
,
1100
0000
0000
0200
0010
0000
0000
0000
0310
0000
0000
0010
0001
0000
1000
0000
,
0100
0000
0000
0200
0001
0000
0000
0000
0301
0000
0000
0001
0010
0000
0100
0000
,
1000
0000
0000
1000
0001
0000
0000
0000
1000
0000
0010
0000
1000
0100
0000
0000
,
1000
0000
0000
0100
0010
0000
0100
0000
0001
1000
0001
1000
0000
0000
0010
0000
,
0100
0000
0000
1000
0100
0000
0010
0000
0001
0000
0000
1000
0010
0000
1000
0000
,
1100
0000
0000
0001
1000
0000
0100
0000
0010
0000
0010
0000
1001
0000
1000
0000
,
0120
0000
0100
0000
0130
0100
1001
0000
,
0010
0000
0000
0100
1000
0000
0001
0000
0100
0000
0000
0001
0010
0000
0100
0000
,
1000
0000
0000
0100
1000
0000
0100
0000
0001
0000
0000
0010
1000
0000
0010
0000
,
0100
0000
0000
0100
0001
0000
1000
0000
0010
0000
0000
0010
0100
0000
0001
0000
,
0100
0000
0000
0001
1000
0000
0010
0000
0100
0000
1000
0000
0001
1000
0000
1000
,
0001
0000
0000
0010
0100
0000
1001
0000
1001
0000
0000
0100
0010
0000
0011
0000
,
1100
0000
0000
0001
1000
0000
0011
0000
1100
0000
0000
0010
1000
0000
0110
0000
,
1001
0000
0000
0001
1000
0000
1010
0000
1100
0000
0000
0010
0001
0000
0011
0000
,
0101
0000
0000
0100
1000
0000
0100
0000
0001
0000
1000
0000
0100
0010
0000
0010
,
1001
0000
0000
0001
1000
0000
0110
0000
0110
0000
0000
1000
0001
0000
0101
0000
,
1010
0000
1000
0100
0000
0010
0001
0000
0001
0100
0000
0010
1000
0000
1100
0000
,
0110
0000
0000
0100
0010
0000
1000
0001
1000
0000
0000
0001
0100
0000
1001
0000
,
1010
0000
0000
1000
0010
0000
1000
0000
0100
0000
0010
0000
1000
0001
0000
0001
,
1010
0000
1000
0100
0000
1000
0010
0000
1000
0100
0000
1000
0001
0000
1000
0100
,
0000
0001
0010
0000
1000
0100
0000
0010
0001
0000
0100
0010
0000
0001
1000
0000
,
0100
0100
0000
0010
0010
0000
1000
1000
0000
0001
0001
0000
0100
0010
0000
1000
,
1001
0000
1000
0100
1000
0000
0001
0100
0001
0000
0010
0100
0010
0000
0100
0000
,
1001
0000
0010
0001
0100
0000
0010
0000
0001
0000
0100
0010
1000
0000
0001
0000
,
0100
0000
1000
0001
0100
0000
0001
0000
0010
0000
0001
1000
0100
0000
1000
0000
,
0101
0000
0100
0001
0000
0100
0001
0000
1000
0010
0000
1000
0010
0000
0100
0000
,
0110
0000
0001
1000
0000
0001
1000
0000
0100
0010
0000
0100
0010
0000
0100
0000
,
1001
0000
1000
0100
1000
0000
0100
0000
0010
0000
0001
0100
0001
0000
0100
0000
,
1000
0000
0001
1000
0010
0000
1000
0000
0100
0000
0010
0001
0100
0000
1000
0000
,
0100
0000
0010
0001
0010
0000
0001
0000
0100
0000
1000
0100
0010
0000
0100
0000
,
0002
0000
1000
0013
,
0101
0000
0000
0000
1100
0000
0000
0001
1000
0000
0000
1000
0010
0000
0100
0000
,
0001
0000
0000
1000
0100
0000
1000
0000
0010
0000
0000
0010
0100
0000
0001
0000
,
1000
0000
0000
1000
0010
0000
0110
0000
0100
0000
0000
0001
1000
0000
0100
0000
,
0001
0000
0000
0001
0100
0000
0001
0000
1000
0000
0000
0100
0010
0000
0100
0000
,
0001
0000
0000
0001
1000
0000
0100
0000
0010
0000
0000
0100
0001
0000
1000
0000
,
0010
0000
0000
0001
1000
0000
0001
0000
0100
0000
0000
0010
1000
0000
0100
0000
,
1000
0000
0000
1000
0001
0000
0010
0000
0100
0000
0000
0001
1000
0000
0100
0000
,
0110
0000
0000
0000
1001
0000
0000
0000
0110
0000
0000
1000
0001
0000
0100
0000
,
1001
0000
0000
0100
1000
0000
0010
0000
0100
0000
0000
0100
0001
0000
1000
0000
,
0100
0000
0000
0100
0010
0000
1000
0000
0001
0000
0000
0001
1000
0000
1000
0000
,
1100
0000
0000
0010
0100
0000
1001
0000
0010
0000
0000
1000
0001
0000
0010
0000
,
0001
0000
0000
0001
1000
0000
0001
0000
0100
0000
0000
0100
0010
0000
0100
0000
,
0110
0000
0000
1000
0001
0000
1000
0000
0100
0000
0000
0001
1000
0000
0001
0000
,
0010
0000
0000
1000
0100
0000
0010
0000
0001
0000
0000
0010
0001
0000
1000
0000
,
0100
0000
0000
0100
1000
0000
0100
0000
0010
0000
0000
0001
1000
0000
0100
0000
,
0110
1001
1100
0011
,
2001
0000
0000
0000
,
3020
0000
0000
0000
0000
0000
0000
0000
0000
0000
0000
0000
0000
0000
0000
0000
0100
0000
0000
0000
0100
0030
0000
0000
,
2002
0000
0000
0003
,
0010
0010
0010
3010
,
1001
0000
1000
0000
0010
0000
0000
0100
0010
0000
1000
0000
0002
0000
0000
0000
,
1000
1000
1000
1003
,
0010
0010
1000
0001
0100
0000
0120
0000
,
1000
1000
1000
1030
,
0100
0001
0100
0000
0001
0000
1000
0000
0000
0000
1000
0000
0020
0000
0000
0000
,
0001
0000
0001
0000
0001
0000
0031
0010
,
1000
0100
1000
0010
0010
1001
0001
0000
;
